Jump to content
Cesbo Community
  • Announcements

    • RadioSintetica

      News!   12/10/17

      If you have any questions related to installation and purchase, please check our documentation https://cesbo.com/en/astra/docs/ and terms of service https://cesbo.com/en/terms/
      Also, we have an official Telegram chat: https://t.me/cesbo_en  you can ask any questions or share your experience with colleagues Если у вас возникли вопросы по установке и покупке, ознакомьтесь пожалуйста с документацией по адресу https://cesbo.com/ru/astra/docs/ и условиями использования https://cesbo.com/ru/terms/
      Так же, обращаю внимание, что у нас есть официальный Телеграмм чат: https://t.me/cesbo_ru в котором можно задать вопросы - или поделиться своим опытом с коллегами

humax

Members
  • Content count

    83
  • Joined

  • Last visited

  • Days Won

    5

humax last won the day on February 1 2016

humax had the most liked content!

About humax

  • Rank
    Member
  • Birthday 07/23/81

Contact Methods

  • ICQ
    327461179
  • Skype
    fartzik

Profile Information

  • Gender
    Male
  • Location
    Austria

Recent Profile Visitors

289 profile views
  1. GeForce GTX 1080 vs NVIDIA GRID M40

    Транскодированое на картах nvidia упирается в память,300-320 мб для HD ,100-200 мб для SD. У тебя судя по картинке,вся память использована .
  2. N*ffmpeg = remuxme

    Зачем городить огород? Когда есть старый добрый "runit" и webинтерфейс к нему на ruby.
  3. Приветствую. Транскодирую на этой карте,количество каналов зависит от количества памяти: 311MB для HD 104MB для SD Соответственно при наличии 6GB: 19-20 HD 50-60 SD Мое мнение оптимальный выбор цена-количество каналов.
  4. Приветствую. Выложи конфиги oscam,и схему работы,через OSemu или просто oscam с файла ключи читает и черз necamd передает.Только я не совсем powervu открыть пытаюсь а его разновидность Tandberg. Спасибо.
  5. Как не бился,не чего не получилось. Правда пробовал не чистый PowerVu а его разновидность "TandBerg CAS: caid: 0x1010",с turksat 42,Fox Networks Group 12461 H. Все перепробовал. Выложите конфиги и бинарники если не трудно. Спасибо.
  6. CAS Tandberg.

    Приветствую колеги. Поддерживает ли astra эту систему кодирования? Я как не бился запустить не смог,на сколько я понял там система схожа с BIS ключи динамически не изменяются. Пример каналов Fox Networks Group на Türksat 42° East ,12461 H. https://github.com/oscam-emu/oscam-emu/wiki/Tandberg-Config EUTELSAT 7A / 7B / 7°E 10997 H 9872 Centre Court Wimbledon 11009 H 9872 Court1 Wimbledon 11021 H 9872 Court 2 Wimbledon 11045 V 9872 WF50 Wimbledon 11093 H 30000
  7. Не знаю, не знаю пользуюсь Flussonic уже не один год, связкой ASTRA_udp-FFMEG_udp_FLUSSONIC_hls,mpegts, все отлично работает, :250 SD каналов(1024x576),50HD 720P,40 SD каналов пишется архив 14 дней,люди смотрят timeshift очень активно,за счет SSD кеша проблем с дисками нет,VOD висит на нём же. 2500 активных юзеров и отдача 6 gbit видео в час пик не проблемма, и это не предел для него. Так что на мой взгляд самое лучшее по цене и качеству решение на рынке для ОТТ. П.С Имхо!
  8. GeForce GTX 1080 vs NVIDIA GRID M40

    Коллеги дорый вечер. Вопрос по Nvidia Nvenc . HD контент h.264 - nvenc_h264 прекрасно жметься с хорошим качеством,а вот SD mpeg2 -в nvenc_h264,ну ни как не выходит достойная картинка. Есть у кого какие наработки в этом направлении? Поделитесь как ffmpeg примерами. Заранее спасибо.
  9. GeForce GTX 1080 vs NVIDIA GRID M40

    Попrобуй прям поверх установить еще раз пакет с CUDA. Ubuntu 14.04: sudo dpkg -i cuda-repo-ubuntu1404_8.0.61-1_amd64.deb sudo apt-get update sudo apt-get install cuda Ubuntu 16.04: sudo dpkg -i cuda-repo-ubuntu1604_8.0.61-1_amd64.deb sudo apt-get update sudo apt-get install cuda Одному коллеге помогло.
  10. GeForce GTX 1080 vs NVIDIA GRID M40

    root@max-tanscoder:~# ffmpeg -y -hwaccel cuvid -c:v h264_cuvid -deint 1 -i http://X.X.X.X:8080/POWER_HD-vcodec h264_nvenc -preset slow -rc vbr -b:v 4M -maxrate 10M -bufsize:v 10M -c:a libfdk_aac -ac 2 -b:a 128k -strict experimental -f mpegts "udp://@239.255.89.2:5002?fifo_buffer=500000&overrun_nonfatal_option=1&pkt_size=1316" ffmpeg version N-84658-ge1940d2 Copyright © 2000-2017 the FFmpeg developers built with gcc 5.4.0 (Ubuntu 5.4.0-6ubuntu1~16.04.4) 20160609 configuration: --prefix=/root/ffmpeg_build --pkg-config-flags=--static --extra-cflags=-I/root/ffmpeg_build/include --extra-ldflags=-L/root/ffmpeg_build/lib --bindir=/root/bin --enable-cuda --enable-cuvid --enable-libnpp --extra-cflags=-I../nv_sdk --extra-ldflags=-L../nv_sdk --enable-gpl --enable-libass --enable-libfdk-aac --enable-libx264 --enable-nvenc --enable-nonfree libavutil 55. 51.100 / 55. 51.100 libavcodec 57. 86.103 / 57. 86.103 libavformat 57. 67.100 / 57. 67.100 libavdevice 57. 3.101 / 57. 3.101 libavfilter 6. 78.100 / 6. 78.100 libswscale 4. 3.101 / 4. 3.101 libswresample 2. 4.100 / 2. 4.100 libpostproc 54. 2.100 / 54. 2.100 Input #0, mpegts, from 'http://X.X.X.X:8080/POWER_HD': Duration: N/A, start: 75243.353622, bitrate: N/A Program 14602 Stream #0:0[0xd3]: Video: h264 (High) ([27][0][0][0] / 0x001B), yuv420p(tv, bt709, top first), 1920x1080 [sAR 1:1 DAR 16:9], 25 fps, 50 tbr, 90k tbn, 50 tbc Stream #0:1[0xdd](eng): Audio: mp2 ([4][0][0][0] / 0x0004), 48000 Hz, stereo, s16p, 256 kb/s Stream mapping: Stream #0:0 -> #0:0 (h264 (h264_cuvid) -> h264 (h264_nvenc)) Stream #0:1 -> #0:1 (mp2 (native) -> aac (libfdk_aac)) Press [q] to stop, [?] for help Output #0, mpegts, to 'udp://@239.255.89.2:5002?fifo_buffer=500000&overrun_nonfatal_option=1&pkt_size=1316': Metadata: encoder : Lavf57.67.100 Stream #0:0: Video: h264 (h264_nvenc) (Main), cuda, 1920x1080 [sAR 1:1 DAR 16:9], q=-1--1, 4000 kb/s, 25 fps, 90k tbn, 25 tbc Metadata: encoder : Lavc57.86.103 h264_nvenc Side data: cpb: bitrate max/min/avg: 10000000/0/4000000 buffer size: 10000000 vbv_delay: -1 Stream #0:1(eng): Audio: aac (libfdk_aac), 48000 Hz, stereo, s16, 128 kb/s Metadata: encoder : Lavc57.86.103 libfdk_aac frame= 5730 fps= 26 q=20.0 size= 125824kB time=00:03:49.41 bitrate=4492.9kbits/s dup=0 drop=5725 speed=1.03x
  11. GeForce GTX 1080 vs NVIDIA GRID M40

    У меня поличилось с 1080р на 720р ужать с деинтерлейсом во так: ffmpeg -y -hwaccel cuvid -c:v h264_cuvid -deint 1 -i http://video_imput-vf scale_npp=1280:720 -rc vbr -vcodec h264_nvenc -c:a libfdk_aac -ac 2 -b:a 128k -strict experimental -f mpegts "udp://@239.255.89.5:5005?fifo_buffer=500000&overrun_nonfatal_option=1&pkt_size=1316" Просто ужать битрейт,без скалинга с деинтерлейсом так: ffmpeg -y -hwaccel cuvid -c:v h264_cuvid -deint 1 -i http://video_imput-vcodec h264_nvenc -preset slow -rc vbr -b:v 4M -maxrate 10M -bufsize:v 10M -c:a libfdk_aac -ac 2 -b:a 128k -strict experimental -f mpegts "udp://@239.255.89.2:5002?fifo_buffer=500000&overrun_nonfatal_option=1&pkt_size=1316"
  12. GeForce GTX 1080 vs NVIDIA GRID M40

    ffmpeg -hwaccel cuvid -c:v h264_cuvid -deint 1 -re -i "mpegts_imput" -map 0:v -c:v h264_nvenc -preset slow -profile:v high -level 4.1 -rc vbr -cq 1 -bf 2 -g 150 -b:v 3000k -map 0:a -c:a libfdk_aac -ac 2 -b:a 128k -strict experimental -f mpegts "udp://@239.255.89.4:5004?fifo_buffer=500000&overrun_nonfatal_option=1&pkt_size=1316"
  13. Ну писалось из mp2 в mp4, а -af aresample=async=1:min_hard_comp=0.100000:first_pts=0. более новый фильтр ,который создает эффект гармоники,даже при птицах на антенне звук догонит видео,при любых раскладах. А -dts_delta_threshold это задается значение порога разрыва таймштмпа,уже устарело можно и без него.
  14. В первом примере качество выше но и процессор хавает значительно сильнее чем во 2. Второй количество каналов на один сервер больше за счет качества.
  15. Или так. ./ffmpeg -loglevel warning -re -i udp://xxx.xxx.xxx.xxx -map 0:v -map 0:a -c:v libx264 -preset veryfast -profile:v High -level 4.0 -vf yadif=0:-1:0 -threads 0 -tune zerolatency -af aresample=async=1:min_hard_comp=0.100000:first_pts=0. -pix_fmt yuv420p -b:v 1200k -minrate 600k -maxrate 2000k -bufsize 6000k -g 5 -c:a aac -ar 44100 -strict -2 -ac 2 -ab 128k -f mpegts "udp://@239.255.89.4:5004?fifo_buffer=500000&overrun_nonfatal_option=1&pkt_size=1316"
×